<?xml version="1.0" standalone="no"?>
<!DOCTYPE svg PUBLIC "-//W3C//DTD SVG 1.1//EN" "http://www.w3.org/Graphics/SVG/1.1/DTD/svg11.dtd" >
<svg xmlns="http://www.w3.org/2000/svg" xmlns:xlink="http://www.w3.org/1999/xlink" version="1.1">
<metadata>
Created by FontForge 20190801 at Wed Mar 17 15:19:28 2010
 By Jimmy Wärting
Copyright (c) 2010 by Lukas Bischoff. All rights reserved.
</metadata>
<defs>
<font id="EdgarsPapercut" horiz-adv-x="590" >
  <font-face 
    font-family="Edgars Papercut"
    font-weight="400"
    font-stretch="normal"
    units-per-em="1000"
    panose-1="0 0 4 0 0 0 0 0 0 0"
    ascent="800"
    descent="-200"
    x-height="520"
    cap-height="740"
    bbox="-120 -380 900 967"
    underline-thickness="20"
    underline-position="-143"
    unicode-range="U+0020-FB02"
  />
<missing-glyph horiz-adv-x="500" 
d="M63 0v800h375v-800h-375zM125 63h250v675h-250v-675z" />
    <glyph glyph-name=".notdef" horiz-adv-x="500" 
d="M63 0v800h375v-800h-375zM125 63h250v675h-250v-675z" />
    <glyph glyph-name="NULL" horiz-adv-x="0" 
 />
    <glyph glyph-name="nonmarkingreturn" horiz-adv-x="300" 
 />
    <glyph glyph-name="space" unicode=" " horiz-adv-x="300" 
 />
    <glyph glyph-name="exclam" unicode="!" horiz-adv-x="290" 
d="M210 246l-150 10l-10 496h140zM240 0q0 -9 -170 0v186l150 -10z" />
    <glyph glyph-name="quotedbl" unicode="&#x22;" horiz-adv-x="384" 
d="M334 753l-30 -230l-100 10v220h130zM170 750q0 -56 -2 -99q-5 -102 -18 -121h-90q-10 174 -10 220h120z" />
    <glyph glyph-name="numbersign" unicode="#" horiz-adv-x="680" 
d="M630 311l-110 -30q9 0 10 -110h-110l-20 110l-107 -1q3 -74 3 -111q-37 0 -113 1q-6 65 -13 131h-120v110h110l-2 50l-98 10v90l94 10l-4 90l120 20l10 -100h110v110h90v-70l120 10l20 -100l-100 -10v-100l110 10v-120zM400 411l-10 90l-110 -10l10 -90z" />
    <glyph glyph-name="dollar" unicode="$" horiz-adv-x="670" 
d="M620 0h-234l-6 -110h-110l1 110h-201v120q101 0 202 2l3 225l-215 13l-10 70v310h229l1 130l80 10l4 -140h206v-90l-203 -13l5 -163l198 6zM278 634l-48 -4l-10 -160l56 2zM430 130q0 9 -10 210l-44 3l7 -219q47 2 47 6z" />
    <glyph glyph-name="percent" unicode="%" horiz-adv-x="671" 
d="M250 562q0 -9 -52 -9q-55 0 -148 9v157l21 22l179 -11v-168zM187 635q0 20 -11 53h-63v-53q34 -9 54 -9t20 9zM480 740l-220 -740h-150l250 740h120zM621 210q2 -165 -8 -204q-29 -10 -223 -6l10 221zM547 74l-10 73h-63v-73h73z" />
    <glyph glyph-name="ampersand" unicode="&#x26;" horiz-adv-x="640" 
d="M590 0h-500l-36 12l-4 698l50 30h210l10 -130l-160 -10l6 -168l214 4v118h100l20 -108h66q10 -71 10 -90q-28 -9 -76 -10l17 -236h63zM374 124l-8 188l-180 -12v-188z" />
    <glyph glyph-name="quotesingle" unicode="'" horiz-adv-x="230" 
d="M180 740l-20 -150l-40 -40v50l-70 10v130h130z" />
    <glyph glyph-name="parenleft" unicode="(" horiz-adv-x="320" 
d="M270 60l-100 -60l-100 150l-20 460q0 19 90 130l100 -70l-70 -90l30 -420z" />
    <glyph glyph-name="parenright" unicode=")" horiz-adv-x="330" 
d="M280 110l-120 -110l-90 70l90 90l-30 420l-80 90l110 60l100 -120z" />
    <glyph glyph-name="asterisk" unicode="*" horiz-adv-x="582" 
d="M532 321h-134l54 -80l-54 -40q-54 67 -67 67q-12 0 -13 -108h-80v121l-94 -80l-40 40l80 67l-121 13l-13 67l121 -13l-94 94l53 67l108 -81l-14 161h121v-147l94 120l67 -53l-108 -121l134 -13v-81z" />
    <glyph glyph-name="plus" unicode="+" horiz-adv-x="598" 
d="M545 440q3 -14 3 -39q0 -41 -8 -98l-182 4l7 -157l-140 10v149l-175 4v140l175 -5v132l120 10l20 -140q57 -2 121 -6z" />
    <glyph glyph-name="comma" unicode="," horiz-adv-x="271" 
d="M220 0l-30 -120h-40l-40 110l-54 20l-6 140h160q11 -88 11 -130q0 -13 -1 -20z" />
    <glyph glyph-name="hyphen" unicode="-" 
d="M540 315l-490 10v128l470 -10q9 -37 20 -128z" />
    <glyph glyph-name="hyphen" unicode="&#x2010;" 
d="M540 315l-490 10v128l470 -10q9 -37 20 -128z" />
    <glyph glyph-name="period" unicode="." horiz-adv-x="270" 
d="M220 0h-170v156l150 -10z" />
    <glyph glyph-name="slash" unicode="/" horiz-adv-x="560" 
d="M560 740l-390 -740h-170l360 710q0 6 3 10q5 9 17 10z" />
    <glyph glyph-name="zero" unicode="0" horiz-adv-x="609" 
d="M559 53l-10 -57l-499 9v672l19 39q0 -5 2 -5q5 0 27 34l432 9l29 -19v-682zM424 169l-9 441l-231 -9l10 -423z" />
    <glyph glyph-name="one" unicode="1" horiz-adv-x="406" 
d="M356 0h-192l20 557l-125 -87l-29 192l163 106q63 9 105 9q40 0 49 -9q18 -18 9 -768z" />
    <glyph glyph-name="two" unicode="2" horiz-adv-x="635" 
d="M290 719l119 18l74 -37q90 -113 83 -147q-17 -86 -258 -424h267l10 -129h-470q-9 0 -9 33q0 36 9 96l257 355l18 55l-28 46l-275 -97l-37 157z" />
    <glyph glyph-name="three" unicode="3" horiz-adv-x="490" 
d="M440 389q0 -17 -10 -38v-351h-380l19 142h218v171h-180l9 124q136 -9 162 0q9 44 0 161l-228 10l10 152h370z" />
    <glyph glyph-name="four" unicode="4" horiz-adv-x="688" 
d="M658 437l-10 -133l-171 -19l19 -285h-142v313l-304 19l22 408h152l-22 -294q0 -17 161 -9l19 209l105 -10l-10 -199h181z" />
    <glyph glyph-name="five" unicode="5" horiz-adv-x="565" 
d="M515 745l-9 -131q-290 9 -307 0q-8 -4 -8 -25q0 -23 8 -58l298 -38l9 -400l-65 -93h-363l-9 121l270 9q17 0 37 93l-19 168l-307 19v307l9 37z" />
    <glyph glyph-name="six" unicode="6" horiz-adv-x="597" 
d="M547 377l-19 -377h-469l-9 74l9 644l55 18h433v-120l-341 -9l-9 -165l295 -10zM417 331h-229v-229h202l18 28z" />
    <glyph glyph-name="seven" unicode="7" horiz-adv-x="612" 
d="M582 331h-156l28 -331h-148l-9 350h-138q-9 0 -9 92h138v156l-249 -9l-9 147h396l10 -276h146v-129z" />
    <glyph glyph-name="eight" unicode="8" horiz-adv-x="569" 
d="M519 0h-441q-17 0 -19 37l-9 699h432q4 0 4 -72q0 -51 -2 -138t-2 -84q0 -17 28 -28zM354 469q0 17 -10 175l-165 -18q12 -103 12 -141q0 -16 -3 -16q77 -8 123 -8q43 0 43 8zM390 129v184q-9 9 -18 9t-184 -18v-166z" />
    <glyph glyph-name="nine" unicode="9" horiz-adv-x="538" 
d="M488 0h-401q-8 0 -8 24q0 25 8 68l266 9l-19 239l-275 19l-9 359l392 18q26 0 28 -18zM325 460v156l-146 -10l-9 -137z" />
    <glyph glyph-name="colon" unicode=":" horiz-adv-x="290" 
d="M210 420q0 -9 -150 0q0 35 -1 63q-3 65 -9 77q56 9 140 0q20 -131 20 -140zM240 170h-170v160h140q10 -60 30 -160z" />
    <glyph glyph-name="semicolon" unicode=";" horiz-adv-x="291" 
d="M210 240q0 -9 -150 0q0 35 -1 62q-3 65 -9 78q56 9 140 0q20 -131 20 -140zM240 0l-30 -120h-40l-40 110l-54 20l-6 140h160q11 -88 11 -130q0 -13 -1 -20z" />
    <glyph glyph-name="less" unicode="&#x3c;" horiz-adv-x="390" 
d="M340 190l-120 -50l-160 240l-10 50l200 170l90 -100l-120 -90z" />
    <glyph glyph-name="equal" unicode="=" horiz-adv-x="560" 
d="M510 450l-450 10v100l450 20v-130zM500 270h-450l10 120l440 10v-130z" />
    <glyph glyph-name="greater" unicode="&#x3e;" horiz-adv-x="400" 
d="M350 370l-10 -40l-160 -190l-110 70l110 160l-130 180l120 70z" />
    <glyph glyph-name="question" unicode="?" horiz-adv-x="600" 
d="M550 436l-190 -70l-10 -162h-150v222l210 70l-20 160l-340 -20v120h430l30 -20zM340 0l-150 10l10 150l130 -10z" />
    <glyph glyph-name="at" unicode="@" horiz-adv-x="720" 
d="M650 70l-400 10l10 280l270 10l-20 80l-270 -20l-70 -80l-10 -220l100 -130h400l10 -110l-470 30l-150 160l20 340q65 50 150 110q19 9 60 10h330l30 -30zM540 150l-10 100l-160 -10l-10 -80z" />
    <glyph glyph-name="A" unicode="A" horiz-adv-x="650" 
d="M600 0h-168l-30 280l-164 10l-30 -290h-158l30 360l60 370l320 10l20 -40zM386 402q0 28 -30 168l-58 10h-30l-20 -178h138z" />
    <glyph glyph-name="B" unicode="B" 
d="M540 70l-20 -70h-470l10 730l350 10l80 -160l-40 -160l60 -30zM300 490v140l-90 -10l-10 -140zM370 130v120l-70 60h-80l-10 -170z" />
    <glyph glyph-name="C" unicode="C" horiz-adv-x="476" 
d="M426 0h-376l10 730h316v-80l-166 -20l30 -500l176 -20z" />
    <glyph glyph-name="D" unicode="D" horiz-adv-x="552" 
d="M502 100l-50 -80q-71 -20 -90 -20h-312v740l302 10l110 -80zM362 230l-20 350l-152 20l20 -430l132 10z" />
    <glyph glyph-name="E" unicode="E" horiz-adv-x="479" 
d="M429 0h-379v730h347l11 -60v-50h-169l-21 -150l179 -10l11 -100h-169v-240l190 -20v-100z" />
    <glyph glyph-name="F" unicode="F" horiz-adv-x="430" 
d="M380 390l-151 -20v-370h-179l11 710q298 -9 298 0t11 -120l-162 -20v-90h162z" />
    <glyph glyph-name="G" unicode="G" horiz-adv-x="562" 
d="M512 0l-462 -2v730l314 20h50l10 -110v0v0l-184 -20v-428l112 2l-20 262l108 22z" />
    <glyph glyph-name="H" unicode="H" horiz-adv-x="572" 
d="M522 0q-147 -9 -147 0t-21 310q-69 13 -94 13q-10 0 -10 -3q0 -2 5 -152t5 -168h-210v730l147 10l11 -250h146l10 250q86 10 105 10q0 -37 53 -750z" />
    <glyph glyph-name="I" unicode="I" horiz-adv-x="288" 
d="M238 0h-178l-10 740h128l20 -70z" />
    <glyph glyph-name="J" unicode="J" horiz-adv-x="466" 
d="M416 758l-10 -758q0 -4 -27 -4q-17 0 -53 2t-40 2h-178q-19 0 -30 60l-28 298l110 20l36 -218q0 -3 8 -3q19 0 72 13l-10 588h150z" />
    <glyph glyph-name="K" unicode="K" horiz-adv-x="597" 
d="M547 3h-188l-62 350q-76 -60 -77 -53q0 -13 7 -297h-177l10 747l136 9q11 -301 21 -292q9 8 226 283l104 -85l-136 -198l115 -369q10 -35 21 -95z" />
    <glyph glyph-name="L" unicode="L" horiz-adv-x="411" 
d="M371 0h-321v756h148v-605q0 -9 164 -19z" />
    <glyph glyph-name="M" unicode="M" horiz-adv-x="695" 
d="M645 0h-179l-47 472l-104 -141q-44 -12 -60 -12q-7 0 -7 2q0 9 -47 133l10 -454h-161v756l123 -9l113 -227l104 217h151z" />
    <glyph glyph-name="N" unicode="N" horiz-adv-x="610" 
d="M560 0h-132q-25 68 -66 161q-26 44 -142 274l19 -435h-189v747h189l180 -397q0 8 -19 397h132z" />
    <glyph glyph-name="O" unicode="O" horiz-adv-x="599" 
d="M549 47l-75 -47h-386l-29 132l-9 520q3 42 28 66l57 38l329 -9q45 -49 57 -86zM417 123v283q0 123 -19 246l-206 -19v-435l28 -75h197z" />
    <glyph glyph-name="P" unicode="P" horiz-adv-x="554" 
d="M504 358l-294 -20l10 -338q-79 -9 -126 -9q-44 0 -44 9v748l364 10l60 -40l30 -40v-320zM394 608l-20 40l-184 -10l10 -180h184z" />
    <glyph glyph-name="Q" unicode="Q" horiz-adv-x="607" 
d="M557 47l-75 -47h-74l20 -80l-110 -10l-10 90h-220l-29 132l-9 520q3 42 28 66l57 38l337 -9q45 -49 57 -86zM425 123v283q0 123 -19 246l-214 -19v-435l28 -75h68v67h80l20 -67h37z" />
    <glyph glyph-name="R" unicode="R" horiz-adv-x="612" 
d="M562 0h-150l-20 210l-20 142l-152 -10l10 -342h-180v742l292 10l140 -10l40 -160q13 -79 13 -108q0 -12 -3 -12q-9 0 -50 -60zM412 552v70h-222v-140l192 -10z" />
    <glyph glyph-name="S" unicode="S" horiz-adv-x="623" 
d="M593 11l-521 -11l-11 157l367 33l11 163l-389 33v55l11 298h455l11 -136l-312 -22v-96h323l33 -55z" />
    <glyph glyph-name="T" unicode="T" horiz-adv-x="652" 
d="M622 628l-210 -10q0 9 30 -618h-192l-10 250l-20 348h-190l10 152l582 10v-132z" />
    <glyph glyph-name="U" unicode="U" horiz-adv-x="670" 
d="M620 0h-550l-10 140l-10 610h150q0 -102 8 -314q9 -277 22 -276l220 10l10 70l10 510h140l10 -50v-700z" />
    <glyph glyph-name="V" unicode="V" horiz-adv-x="630" 
d="M600 760l-112 -466v0l4 11v0q0 -7 -72 -305h-280l-110 760l130 10q40 -230 90 -490q2 -6 20 -6q19 0 50 6l90 480h190z" />
    <glyph glyph-name="W" unicode="W" horiz-adv-x="710" 
d="M680 750l-90 -750h-150l-120 250l-80 -250h-120l-90 760l150 -10l50 -430l50 140l100 -10l70 -140l40 440h190z" />
    <glyph glyph-name="X" unicode="X" horiz-adv-x="647" 
d="M617 680q-180 -291 -180 -300t170 -380h-200l-100 260l-130 -260h-147l160 360l-140 380h190l107 -220l140 220z" />
    <glyph glyph-name="Y" unicode="Y" horiz-adv-x="640" 
d="M610 700l-240 -300l10 -400h-170l-10 420l-10 30l-160 300q122 10 150 10q19 -37 130 -240l170 240z" />
    <glyph glyph-name="Z" unicode="Z" horiz-adv-x="680" 
d="M630 0h-540l20 170l320 420h-380v150h500l20 -20l30 -140l-290 -410l310 -10z" />
    <glyph glyph-name="bracketleft" unicode="[" horiz-adv-x="370" 
d="M320 0h-270l10 750h250v-90l-90 -30l-10 -510l100 -10z" />
    <glyph glyph-name="backslash" unicode="\" horiz-adv-x="410" 
d="M410 0q4 -4 -34 -4q-28 0 -75 2q-16 1 -41 2l-110 280l-150 460h110q25 -65 70 -170q15 -30 123 -304q102 -261 107 -266z" />
    <glyph glyph-name="bracketright" unicode="]" horiz-adv-x="410" 
d="M360 740l-10 -740h-300l10 110l130 20v490h-110l10 120h270z" />
    <glyph glyph-name="asciicircum" unicode="^" horiz-adv-x="450" 
d="M400 699l-60 -50l-100 20l-100 -50l-90 70l170 90h50z" />
    <glyph glyph-name="underscore" unicode="_" horiz-adv-x="680" 
d="M630 110q0 -37 -20 -110h-560q-9 19 0 100z" />
    <glyph glyph-name="grave" unicode="`" horiz-adv-x="300" 
d="M250 597l-80 -10l-50 50l-70 110l120 30z" />
    <glyph glyph-name="a" unicode="a" horiz-adv-x="575" 
d="M525 0h-465l-10 275l332 19v124l-313 19l-9 114h436zM382 95l-19 104l-190 -9v-95h209z" />
    <glyph glyph-name="b" unicode="b" horiz-adv-x="610" 
d="M560 480l-10 -480h-490l-10 732l140 10l10 -212l350 -20zM450 390q-28 9 -240 0l-20 -260h250q13 140 13 214q0 32 -3 46z" />
    <glyph glyph-name="c" unicode="c" horiz-adv-x="520" 
d="M490 0q-205 -9 -326 -9q-114 0 -114 9v530l400 10l10 -120l-270 -20l-10 -260l290 10z" />
    <glyph glyph-name="d" unicode="d" horiz-adv-x="670" 
d="M620 0h-570l20 540h390l20 220h120zM450 130v270h-260l10 -270h250z" />
    <glyph glyph-name="e" unicode="e" horiz-adv-x="600" 
d="M540 220l-340 -10l20 -90h310l20 -120h-500l10 540l420 20l50 -10zM420 320q0 110 -10 120t-64 10q-58 0 -146 -10l10 -120q98 -9 156 -9q54 0 54 9z" />
    <glyph glyph-name="f" unicode="f" horiz-adv-x="460" 
d="M430 426l-150 -10l10 -416h-160l-20 446h-80v100l90 20l10 164l40 20h260v-100q-131 -10 -150 -10q-9 0 -9 -24q0 -26 9 -70l150 -10v-110z" />
    <glyph glyph-name="g" unicode="g" horiz-adv-x="630" 
d="M580 -340l-530 20l20 120h350l20 200h-390l10 550l500 -10l20 -200v-680zM420 150q-2 14 -20 250l-210 10v-260q223 9 230 0z" />
    <glyph glyph-name="h" unicode="h" horiz-adv-x="620" 
d="M570 0h-160l-40 412l-180 10l10 -422h-150v754h130l30 -222h270l40 -50z" />
    <glyph glyph-name="i" unicode="i" horiz-adv-x="280" 
d="M190 588l-130 -10v170h130v-160zM230 0l-170 10l-10 520h140z" />
    <glyph glyph-name="j" unicode="j" horiz-adv-x="230" 
d="M170 596l-140 10v150h130zM180 -280l-250 -90l-50 130l150 60l20 50l-10 658l130 -20z" />
    <glyph glyph-name="k" unicode="k" horiz-adv-x="570" 
d="M520 0h-140l-80 380l-90 -60v-320h-150l-10 734l140 10v-264l290 130l40 -100l-120 -80z" />
    <glyph glyph-name="l" unicode="l" horiz-adv-x="250" 
d="M200 0h-140q-19 0 -10 740l120 10z" />
    <glyph glyph-name="m" unicode="m" horiz-adv-x="750" 
d="M50 -10v530l120 10l30 10h450l30 -20l20 -520h-140l-10 410h-110l10 -410h-140l-10 410h-120l10 -410z" />
    <glyph glyph-name="n" unicode="n" horiz-adv-x="530" 
d="M480 0h-150v410l-140 10v-420h-140v540l370 -10l30 -20z" />
    <glyph glyph-name="o" unicode="o" horiz-adv-x="532" 
d="M480 540q2 0 2 -29q0 -66 -11 -290t-11 -221q0 -9 -99 -9q-70 0 -188.5 4.5t-112.5 4.5q-19 0 -10 40l10 480l10 20h410zM350 120v300l-170 10v-300z" />
    <glyph glyph-name="p" unicode="p" 
d="M540 510l-20 -510h-330l10 -380h-150v910h110zM430 410l-50 10l-190 -10l10 -250h210z" />
    <glyph glyph-name="q" unicode="q" horiz-adv-x="630" 
d="M580 -380l-150 10l-30 370h-350l10 520l70 20l450 -10v-910zM410 140q0 280 -9.5 280t-200.5 10v-280q138 -13 188 -13q22 0 22 3z" />
    <glyph glyph-name="r" unicode="r" horiz-adv-x="530" 
d="M480 290h-120l-20 110l-140 -10l30 -390h-170l-10 540l120 10l50 -10h230z" />
    <glyph glyph-name="s" unicode="s" horiz-adv-x="620" 
d="M570 0h-490v120h350l10 110h-370l-20 260l20 50h460v-110h-350l10 -70l350 -10z" />
    <glyph glyph-name="t" unicode="t" horiz-adv-x="440" 
d="M410 440l-130 -10l40 -430h-170l-30 430l-90 10v100h90l10 218l130 -10l10 -198l130 -10z" />
    <glyph glyph-name="u" unicode="u" 
d="M540 0h-460l-30 540h140l20 -390h180l-10 400l140 -10z" />
    <glyph glyph-name="v" unicode="v" horiz-adv-x="580" 
d="M550 540l-170 -540h-230l-100 540h120l70 -370h60l90 370h160z" />
    <glyph glyph-name="w" unicode="w" horiz-adv-x="710" 
d="M680 540l-100 -540h-130l-90 220l-110 -220h-70l-140 540h130l70 -320l70 220h70l130 -260l60 360h110z" />
    <glyph glyph-name="x" unicode="x" horiz-adv-x="620" 
d="M590 -1h-170l-140 220l-110 -220h-160l180 290l-170 250h140l140 -180l100 180l130 -10l-140 -260z" />
    <glyph glyph-name="y" unicode="y" 
d="M540 510l-30 -840l-410 10l-10 110l310 20v190h-300l-50 520h140l20 -410h180l20 400h130z" />
    <glyph glyph-name="z" unicode="z" horiz-adv-x="550" 
d="M500 0h-450l10 160l290 260h-300v120h440q4 0 4 -33q0 -25 -2 -60.5t-2 -26.5t-20 -30l-280 -270h300z" />
    <glyph glyph-name="braceleft" unicode="{" horiz-adv-x="340" 
d="M290 680l-50 -60l-20 -180l-50 -40l50 -40l20 -230l40 -70l-70 -60l-80 70l-30 290l-50 20v40l50 20l40 240l20 20l80 40z" />
    <glyph glyph-name="bar" unicode="|" horiz-adv-x="230" 
d="M180 0h-130v150l10 290l-10 300l100 -10l20 -50v-260z" />
    <glyph glyph-name="braceright" unicode="}" horiz-adv-x="340" 
d="M290 390l-10 -30q-31 -40 -40 -40l-30 -280l-70 -40l-80 40l50 70l20 240l40 30l-40 30l-20 220l-60 70l110 30l80 -80l10 -220z" />
    <glyph glyph-name="asciitilde" unicode="~" horiz-adv-x="404" 
d="M354 640l-69 -28h-48l-66 46l-88 -40l-33 72l77 50q35 20 55 20q21 0 87 -56l85 28v-92z" />
    <glyph glyph-name="Adieresis" unicode="&#xc4;" horiz-adv-x="610" 
d="M600 0h-168l-30 280l-164 10l-30 -290h-158l30 360l60 370l320 10l20 -40zM386 402q0 28 -30 168l-58 10h-30l-20 -178h138zM472 964l-8 -188l-112 16l-8 164zM244 780l-124 12l8 144l112 20z" />
    <glyph glyph-name="Aring" unicode="&#xc5;" horiz-adv-x="610" 
d="M600 0h-168l-30 280l-164 10l-30 -290h-158l30 360l60 370l320 10l20 -40zM386 402q0 28 -30 168l-58 10h-30l-20 -178h138zM406 948l-8 -168l-188 8l12 164zM328 890l-40 -4v-40h36z" />
    <glyph glyph-name="Ccedilla" unicode="&#xc7;" horiz-adv-x="456" 
d="M406 0h-130l-30 -120l-90 -70l-30 50l60 60v80h-136l10 730h296v-80l-150 -20l30 -500l160 -20z" />
    <glyph glyph-name="Eacute" unicode="&#xc9;" horiz-adv-x="430" 
d="M429 0h-379v730h347l11 -60v-50h-169l-21 -150l179 -10l11 -100h-169v-240l190 -20v-100zM320 937l-70 -110l-50 -50l-80 10l80 180z" />
    <glyph glyph-name="Ntilde" unicode="&#xd1;" horiz-adv-x="610" 
d="M560 0h-132q-25 68 -66 161q-26 44 -142 274l19 -435h-189v747h189l180 -397q0 8 -19 397h132zM434 810l-69 -28h-48l-66 46l-88 -40l-33 72l77 50q35 20 55 20q21 0 87 -56l85 28v-92z" />
    <glyph glyph-name="Odieresis" unicode="&#xd6;" horiz-adv-x="591" 
d="M549 47l-75 -47h-386l-29 132l-9 520q3 42 28 66l57 38l329 -9q45 -49 57 -86zM417 123v283q0 123 -19 246l-206 -19v-435l28 -75h197zM462 964l-8 -188l-112 16l-8 164zM234 780l-124 12l8 144l112 20z" />
    <glyph glyph-name="Udieresis" unicode="&#xdc;" horiz-adv-x="670" 
d="M620 0h-550l-10 140l-10 610h150q0 -102 8 -314q9 -277 22 -276l220 10l10 70l10 510h140l10 -50v-700zM512 964l-8 -188l-112 16l-8 164zM284 780l-124 12l8 144l112 20z" />
    <glyph glyph-name="aacute" unicode="&#xe1;" horiz-adv-x="575" 
d="M525 0h-465l-10 275l332 19v124l-313 19l-9 114h436zM382 95l-19 104l-190 -9v-95h209zM380 747l-70 -110l-50 -50l-80 10l80 180z" />
    <glyph glyph-name="agrave" unicode="&#xe0;" horiz-adv-x="575" 
d="M525 0h-465l-10 275l332 19v124l-313 19l-9 114h436zM382 95l-19 104l-190 -9v-95h209zM350 588l-80 -10l-50 50l-70 110l120 30z" />
    <glyph glyph-name="acircumflex" unicode="&#xe2;" horiz-adv-x="575" 
d="M525 0h-465l-10 275l332 19v124l-313 19l-9 114h436zM382 95l-19 104l-190 -9v-95h209zM450 660l-60 -50l-100 20l-100 -50l-90 70l170 90h50z" />
    <glyph glyph-name="adieresis" unicode="&#xe4;" horiz-adv-x="575" 
d="M525 0h-465l-10 275l332 19v124l-313 19l-9 114h436zM382 95l-19 104l-190 -9v-95h209zM442 804l-8 -188l-112 16l-8 164zM214 620l-124 12l8 144l112 20z" />
    <glyph glyph-name="atilde" unicode="&#xe3;" horiz-adv-x="575" 
d="M525 0h-465l-10 275l332 19v124l-313 19l-9 114h436zM382 95l-19 104l-190 -9v-95h209zM424 611l-69 -28h-48l-66 46l-88 -40l-33 72l77 50q35 20 55 20q21 0 87 -56l85 28v-92z" />
    <glyph glyph-name="aring" unicode="&#xe5;" horiz-adv-x="575" 
d="M525 0h-465l-10 275l332 19v124l-313 19l-9 114h436zM382 95l-19 104l-190 -9v-95h209zM376 758l-8 -168l-188 8l12 164zM298 700l-40 -4v-40h36z" />
    <glyph glyph-name="ccedilla" unicode="&#xe7;" horiz-adv-x="540" 
d="M490 0q-45 -2 -190 -7v-93l-90 -90l-20 70l40 50l-6 62q-174 -3 -174 8v530l400 10l10 -120l-270 -20l-10 -260l290 10z" />
    <glyph glyph-name="eacute" unicode="&#xe9;" horiz-adv-x="600" 
d="M540 220l-340 -10l20 -90h310l20 -120h-500l10 540l420 20l50 -10zM420 320q0 110 -10 120t-64 10q-58 0 -146 -10l10 -120q98 -9 156 -9q54 0 54 9zM420 747l-70 -110l-50 -50l-80 10l80 180z" />
    <glyph glyph-name="egrave" unicode="&#xe8;" horiz-adv-x="600" 
d="M540 220l-340 -10l20 -90h310l20 -120h-500l10 540l420 20l50 -10zM420 320q0 110 -10 120t-64 10q-58 0 -146 -10l10 -120q98 -9 156 -9q54 0 54 9zM380 588l-80 -10l-50 50l-70 110l120 30z" />
    <glyph glyph-name="ecircumflex" unicode="&#xea;" horiz-adv-x="600" 
d="M540 220l-340 -10l20 -90h310l20 -120h-500l10 540l420 20l50 -10zM420 320q0 110 -10 120t-64 10q-58 0 -146 -10l10 -120q98 -9 156 -9q54 0 54 9zM460 660l-60 -50l-100 20l-100 -50l-90 70l170 90h50z" />
    <glyph glyph-name="edieresis" unicode="&#xeb;" horiz-adv-x="600" 
d="M540 220l-340 -10l20 -90h310l20 -120h-500l10 540l420 20l50 -10zM420 320q0 110 -10 120t-64 10q-58 0 -146 -10l10 -120q98 -9 156 -9q54 0 54 9zM472 804l-8 -188l-112 16l-8 164zM244 620l-124 12l8 144l112 20z" />
    <glyph glyph-name="iacute" unicode="&#xed;" horiz-adv-x="280" 
d="M230 0l-170 10l-10 520h140zM250 747l-70 -110l-50 -50l-80 10l80 180z" />
    <glyph glyph-name="igrave" unicode="&#xec;" horiz-adv-x="280" 
d="M230 0l-170 10l-10 520h140zM201 597l-80 -10l-50 50l-70 110l120 30z" />
    <glyph glyph-name="icircumflex" unicode="&#xee;" horiz-adv-x="350" 
d="M290 0l-170 10l-10 520h140zM351 660l-60 -50l-100 20l-100 -50l-90 70l170 90h50z" />
    <glyph glyph-name="idieresis" unicode="&#xef;" horiz-adv-x="322" 
d="M260 0l-170 10l-10 520h140zM333 804l-8 -188l-112 16l-8 164zM105 620l-124 12l8 144l112 20z" />
    <glyph glyph-name="ntilde" unicode="&#xf1;" horiz-adv-x="490" 
d="M480 0h-150v410l-140 10v-420h-140v540l370 -10l30 -20zM384 611l-69 -28h-48l-66 46l-88 -40l-33 72l77 50q35 20 55 20q21 0 87 -56l85 28v-92z" />
    <glyph glyph-name="oacute" unicode="&#xf3;" horiz-adv-x="532" 
d="M480 540q2 0 2 -29q0 -66 -11 -290t-11 -221q0 -9 -99 -9q-70 0 -188.5 4.5t-112.5 4.5q-19 0 -10 40l10 480l10 20h410zM350 120v300l-170 10v-300zM400 747l-70 -110l-50 -50l-80 10l80 180z" />
    <glyph glyph-name="ograve" unicode="&#xf2;" horiz-adv-x="532" 
d="M480 540q2 0 2 -29q0 -66 -11 -290t-11 -221q0 -9 -99 -9q-70 0 -188.5 4.5t-112.5 4.5q-19 0 -10 40l10 480l10 20h410zM350 120v300l-170 10v-300zM360 597l-80 -10l-50 50l-70 110l120 30z" />
    <glyph glyph-name="ocircumflex" unicode="&#xf4;" horiz-adv-x="532" 
d="M480 540q2 0 2 -29q0 -66 -11 -290t-11 -221q0 -9 -99 -9q-70 0 -188.5 4.5t-112.5 4.5q-19 0 -10 40l10 480l10 20h410zM350 120v300l-170 10v-300zM430 660l-60 -50l-100 20l-100 -50l-90 70l170 90h50z" />
    <glyph glyph-name="odieresis" unicode="&#xf6;" horiz-adv-x="532" 
d="M480 540q2 0 2 -29q0 -66 -11 -290t-11 -221q0 -9 -99 -9q-70 0 -188.5 4.5t-112.5 4.5q-19 0 -10 40l10 480l10 20h410zM350 120v300l-170 10v-300zM442 804l-8 -188l-112 16l-8 164zM214 620l-124 12l8 144l112 20z" />
    <glyph glyph-name="otilde" unicode="&#xf5;" horiz-adv-x="532" 
d="M480 540q2 0 2 -29q0 -66 -11 -290t-11 -221q0 -9 -99 -9q-70 0 -188.5 4.5t-112.5 4.5q-19 0 -10 40l10 480l10 20h410zM350 120v300l-170 10v-300zM414 611l-69 -28h-48l-66 46l-88 -40l-33 72l77 50q35 20 55 20q21 0 87 -56l85 28v-92z" />
    <glyph glyph-name="uacute" unicode="&#xfa;" 
d="M540 0h-460l-30 540h140l20 -390h180l-10 400l140 -10zM430 747l-70 -110l-50 -50l-80 10l80 180z" />
    <glyph glyph-name="ugrave" unicode="&#xf9;" 
d="M540 0h-460l-30 540h140l20 -390h180l-10 400l140 -10zM360 597l-80 -10l-50 50l-70 110l120 30z" />
    <glyph glyph-name="ucircumflex" unicode="&#xfb;" 
d="M540 0h-460l-30 540h140l20 -390h180l-10 400l140 -10zM430 660l-60 -50l-100 20l-100 -50l-90 70l170 90h50z" />
    <glyph glyph-name="udieresis" unicode="&#xfc;" 
d="M540 0h-460l-30 540h140l20 -390h180l-10 400l140 -10zM452 804l-8 -188l-112 16l-8 164zM224 620l-124 12l8 144l112 20z" />
    <glyph glyph-name="dagger" unicode="&#x2020;" horiz-adv-x="448" 
d="M398 544l-120 -4l8 -216h-112l-4 212l-120 8l4 84q104 0 124 -4q7 30 0 112h100l-4 -112l124 4v-84z" />
    <glyph glyph-name="degree" unicode="&#xb0;" horiz-adv-x="308" 
d="M258 572l-16 -12q-82 -8 -129 -8q-31 0 -39.5 4t-16 8.5t-7.5 15.5v140l24 20h176zM181 624v62l-66 -7l4 -58l44 -7z" />
    <glyph glyph-name="cent" unicode="&#xa2;" horiz-adv-x="548" 
d="M498 0h-96l4 -92l-120 12v80h-220q-19 0 -16 36l24 464l28 36l184 6v90l88 8l4 -96l112 4l-4 -128h-102l12 -278l102 -2v-140zM286 143v277h-72l4 -276z" />
    <glyph glyph-name="sterling" unicode="&#xa3;" horiz-adv-x="456" 
d="M406 0h-356l4 64l16 12l8 632l20 20l248 16l-8 -96l-140 -12l4 -88l100 4l8 -92l-120 -12l8 -340l68 4l12 176h120z" />
    <glyph glyph-name="section" unicode="&#xa7;" horiz-adv-x="576" 
d="M526 228l-36 -36v-192h-416l8 200l100 -8l12 -79l200 21l8 34l-352 220v52l80 160l8 92l8 52l376 -8l-8 -184l-92 -4l-12 84l-172 10l-4 -78l272 -140l20 -28v-168zM440 352l-218 114l-32 4l-22 -46l234 -122h32z" />
    <glyph glyph-name="bullet" unicode="&#x2022;" horiz-adv-x="440" 
d="M390 288l-8 -24l-304 -16l-12 72l-16 160l32 40l276 24z" />
    <glyph glyph-name="paragraph" unicode="&#xb6;" horiz-adv-x="634" 
d="M584 0l-118 8l-4 412l-72 4l4 -424h-116l-4 424l-200 12l-24 20l4 284h232l290 -8zM450 640q-19 7 -56 4v-94l48 -12q10 52 10 82q0 13 -2 20zM266 652l-116 4l-12 -24l4 -102l120 4z" />
    <glyph glyph-name="germandbls" unicode="&#xdf;" horiz-adv-x="510" 
d="M460 120l-152 -132l-72 78l100 128l6 180l-159 -18l-3 -548l-130 -8l12 936l294 -16l28 -20l32 -228l40 -56zM304 484l-20 142h-100l-1 -149z" />
    <glyph glyph-name="registered" unicode="&#xae;" horiz-adv-x="478" 
d="M428 404q-3 -15 -8 -25l-370 17l4 298l21 38l353 17q4 -325 0 -345zM334 440l-23 113l23 8l-8 121l-19 11l-159 -18v-220l57 -8l4 91h57l7 -95zM291 576l-80 -4l-4 68l76 16z" />
    <glyph glyph-name="copyright" unicode="&#xa9;" horiz-adv-x="478" 
d="M428 404q-3 -15 -8 -25l-370 17l4 298l21 38l353 17q4 -325 0 -345zM319 448l-4 68l-96 -4l8 100l88 4v68l-164 -12l-8 -216z" />
    <glyph glyph-name="trademark" unicode="&#x2122;" horiz-adv-x="584" 
d="M534 444l-68 16l-4 28l-24 -28h-60l-24 32v-28h-60l-8 260h72l40 -152l48 144l68 8zM282 652l-88 -8l16 -172l-76 4l-8 180l-76 4l8 80l216 -16z" />
    <glyph glyph-name="acute" unicode="&#xb4;" horiz-adv-x="300" 
d="M250 747l-70 -110l-50 -50l-80 10l80 180z" />
    <glyph glyph-name="dieresis" unicode="&#xa8;" horiz-adv-x="452" 
d="M402 804l-8 -188l-112 16l-8 164zM174 620l-124 12l8 144l112 20z" />
    <glyph glyph-name="notequal" unicode="&#x2260;" horiz-adv-x="680" 
d="M630 564l-4 -116l-223 -5l-36 -66l251 3l-4 -104l-304 2l-68 -118l-96 36l48 83l-140 1l-4 96h199l38 65l-233 -5v108l297 9l59 103l96 -16l-43 -83z" />
    <glyph glyph-name="AE" unicode="&#xc6;" horiz-adv-x="850" 
d="M800 0h-380l-30 280l-160 10l-30 -290h-150l30 360l60 370l280 10l20 -40l30 -175v205h300l10 -60v-50h-130l-20 -150l140 -10l10 -100h-130v-240l150 -20v-100zM370 390q0 28 -30 180l-50 10h-30l-20 -190h130z" />
    <glyph glyph-name="Oslash" unicode="&#xd8;" horiz-adv-x="710" 
d="M660 650l-92 -99l23 -504l-75 -47h-378l-22 101l-36 -31l-30 90l58 60l-8 432q3 42 28 66l57 38l321 -9q32 -35 48 -64l36 37zM450 575q-4 44 -10 77l-198 -19v-274zM459 123v283v27l-179 -193l-38 -33v-9l28 -75h189z" />
    <glyph glyph-name="infinity" unicode="&#x221e;" horiz-adv-x="715" 
d="M665 300l-287 13q-14 -7 -40 -22q-5 -3 -51 -3q-77 0 -237 7v241l283 4q9 2 40 13q21 8 284 0zM560 383l-10 94l-125 -7l-4 -84zM284 465l-125 -6l-3 -88h125z" />
    <glyph glyph-name="plusminus" unicode="&#xb1;" horiz-adv-x="598" 
d="M545 384q3 -14 3 -35q0 -35 -8 -78l-182 4l6 -180l146 -3l12 -92h-472l10 102l185 -4v179l-175 4v116l175 -5v136l100 10l20 -144q57 -2 121 -6z" />
    <glyph glyph-name="lessequal" unicode="&#x2264;" horiz-adv-x="380" 
d="M314 468l-132 -144l120 -152l-108 -52l-144 220l8 24l176 172zM330 92l-12 -92h-252l-4 92h268z" />
    <glyph glyph-name="greaterequal" unicode="&#x2265;" horiz-adv-x="380" 
d="M330 340l-144 -220l-108 52l120 152l-132 144l80 68l176 -172zM318 92l-4 -92h-252l-12 92h268z" />
    <glyph glyph-name="yen" unicode="&#xa5;" horiz-adv-x="644" 
d="M594 484l-8 -88l-156 -16l-12 -48l140 -4l-4 -76l-140 -4l-8 -248h-128l20 244h-156l4 92l148 -8l-20 60l-148 4l-16 76h100l-160 224l104 36l152 -236l60 -4l104 248l120 -16l-100 -240z" />
    <glyph glyph-name="mu" unicode="&#xb5;" horiz-adv-x="516" 
d="M466 532l-20 -432l16 -36v-64h-300l-8 -200h-104l12 736l136 -8l-20 -388l156 -4l8 396h124z" />
    <glyph glyph-name="mu" unicode="&#x3bc;" horiz-adv-x="516" 
d="M466 532l-20 -432l16 -36v-64h-300l-8 -200h-104l12 736l136 -8l-20 -388l156 -4l8 396h124z" />
    <glyph glyph-name="partialdiff" unicode="&#x2202;" horiz-adv-x="476" 
d="M426 0h-284l-92 112v200l20 32l172 36v72l-148 8l8 92l216 -20l92 -316zM298 104l-12 168l-100 4l-24 -124l12 -48h124z" />
    <glyph glyph-name="summation" unicode="&#x2211;" horiz-adv-x="696" 
d="M646 0h-564l4 128l196 220l-232 288l4 100l544 -8l24 -12v-248h-108l-24 144h-256l180 -232v-44l-184 -236l284 12l-4 124l120 4z" />
    <glyph glyph-name="product" unicode="&#x220f;" horiz-adv-x="680" 
d="M630 600l-120 -4l36 -596h-140l-12 600l-92 -8l28 -592h-136l-24 604l-120 4l4 124h132l436 8z" />
    <glyph glyph-name="pi" unicode="&#x3c0;" horiz-adv-x="596" 
d="M546 424l-112 -8l32 -416h-116l-4 420h-100l36 -420h-108l-24 424l-100 8v108h36q19 0 452 -4z" />
    <glyph glyph-name="integral" unicode="&#x222b;" horiz-adv-x="360" 
d="M360 752l-92 -16l-92 -828l-112 -108l-176 -8l-8 122q54 4 124 16q15 7 36 16l108 874l40 44l172 32v-144z" />
    <glyph glyph-name="ordfeminine" unicode="&#xaa;" horiz-adv-x="380" 
d="M330 416l-280 36l12 152h180v56l-152 12v92l228 -40l12 -84v-224zM238 536h-100l-4 -24l100 -12z" />
    <glyph glyph-name="ordmasculine" unicode="&#xba;" horiz-adv-x="348" 
d="M298 456l-8 -36l-236 16l-4 288l16 20h220zM206 508l-8 160l-60 -4l-4 -152z" />
    <glyph glyph-name="Omega" unicode="&#x3a9;" horiz-adv-x="628" 
d="M578 332l-56 -144l-40 -72l72 -4l16 -112h-230l12 124l52 60l56 132l-13 188l-57 102l-20 20q-105 4 -124 0t-32 -52l-50 -90l12 -188l72 -140l36 -32l4 -124h-206l8 92l76 8l-56 100l-56 108l-4 188l120 220l276 28l20 -36l92 -176z" />
    <glyph glyph-name="Omega" unicode="&#x2126;" horiz-adv-x="628" 
d="M578 332l-56 -144l-40 -72l72 -4l16 -112h-230l12 124l52 60l56 132l-13 188l-57 102l-20 20q-105 4 -124 0t-32 -52l-50 -90l12 -188l72 -140l36 -32l4 -124h-206l8 92l76 8l-56 100l-56 108l-4 188l120 220l276 28l20 -36l92 -176z" />
    <glyph glyph-name="ae" unicode="&#xe6;" horiz-adv-x="950" 
d="M900 250l-340 -10v-130l310 10l20 -120h-830l-10 275l332 19v124l-313 19l-9 114l390 -1l390 10l50 -10zM780 350q0 90 -10 100t-65 10q-58 0 -145 -10l10 -100q97 -9 155 -9q55 0 55 9zM382 95l-19 94l-190 -9v-85h209z" />
    <glyph glyph-name="oslash" unicode="&#xf8;" horiz-adv-x="670" 
d="M620 440l-82 -64q-3 -88 -11 -241q-7 -131 -7 -135q0 -9 -99 -9q-70 0 -188.5 4.5t-112.5 4.5q-19 0 -10 40l1 26l-41 -26l-20 60l62 47l8 373l10 20h410q3 0 1 -69l39 29zM420 379v61l-200 10v-222zM420 110v174l-160 -124l-40 -25v-15z" />
    <glyph glyph-name="questiondown" unicode="&#xbf;" horiz-adv-x="600" 
d="M410 754l-10 -150l-130 10l-10 150zM550 0h-430l-30 20l-40 300l190 70l10 154h150v-214l-190 -70l20 -150l320 20v-130z" />
    <glyph glyph-name="exclamdown" unicode="&#xa1;" horiz-adv-x="300" 
d="M250 760q0 -9 -20 -160l-160 -10v170q180 9 180 0zM220 530l-20 -530h-150l10 520z" />
    <glyph glyph-name="logicalnot" unicode="&#xac;" horiz-adv-x="632" 
d="M582 296l-120 -4l-16 132h-396l8 120l124 -4l392 -4z" />
    <glyph glyph-name="radical" unicode="&#x221a;" horiz-adv-x="744" 
d="M694 740l-4 -128l-180 -16l-166 -596h-150l-144 368l108 56l84 -220l24 -8l140 516l28 20z" />
    <glyph glyph-name="florin" unicode="&#x192;" horiz-adv-x="390" 
d="M360 762l-102 -16l-24 -210h102l-4 -92l-109 -7l-57 -529l-92 -108l-186 -8l-8 112q54 4 124 16q15 7 36 16l60 494l-32 -2l8 108h37l35 284l40 44l172 32v-134z" />
    <glyph glyph-name="approxequal" unicode="&#x2248;" horiz-adv-x="660" 
d="M602 436l-96 -48l-60 -16l-128 12l-104 72l-80 4l-76 -32l-8 124l72 28l108 4l148 -96l124 12l88 52zM610 288l-104 -44l-176 -16l-92 48l-56 28l-108 -24l-8 112l100 36l48 -16l108 -72h124l160 68z" />
    <glyph glyph-name="approxequal" unicode="&#x22f2;" horiz-adv-x="660" 
d="M602 436l-96 -48l-60 -16l-128 12l-104 72l-80 4l-76 -32l-8 124l72 28l108 4l148 -96l124 12l88 52zM610 288l-104 -44l-176 -16l-92 48l-56 28l-108 -24l-8 112l100 36l48 -16l108 -72h124l160 68z" />
    <glyph glyph-name="Delta" unicode="&#x394;" horiz-adv-x="604" 
d="M554 0h-504l228 524l36 20l180 -424zM382 108l-80 184l-16 -20l-64 -164h160z" />
    <glyph glyph-name="Delta" unicode="&#x2206;" horiz-adv-x="604" 
d="M554 0h-504l228 524l36 20l180 -424zM382 108l-80 184l-16 -20l-64 -164h160z" />
    <glyph glyph-name="guillemotleft" unicode="&#xab;" horiz-adv-x="560" 
d="M510 436l-136 -156v-28l108 -184l-104 -68l-148 276l204 252zM322 448l-144 -160l100 -172l16 -44l-104 -72q-66 130 -136 284l-4 24l196 232z" />
    <glyph glyph-name="guillemotright" unicode="&#xbb;" horiz-adv-x="560" 
d="M510 308l-4 -24q-4 -22 -136 -284l-104 72l16 44l100 172l-144 160l76 92zM330 276l-148 -276l-104 68l108 184v28l-136 156l76 92z" />
    <glyph glyph-name="ellipsis" unicode="&#x2026;" horiz-adv-x="642" 
d="M592 0h-160l16 140h140zM400 144q0 -144 -4 -144h-140l-16 144h160zM220 0h-170v156l150 -10z" />
    <glyph glyph-name="nonbreakingspace" unicode="&#xa0;" horiz-adv-x="300" 
 />
    <glyph glyph-name="Agrave" unicode="&#xc0;" horiz-adv-x="610" 
d="M600 0h-168l-30 280l-164 10l-30 -290h-158l30 360l60 370l320 10l20 -40zM386 402q0 28 -30 168l-58 10h-30l-20 -178h138zM360 787l-80 -10l-50 50l-70 110l120 30z" />
    <glyph glyph-name="Atilde" unicode="&#xc3;" horiz-adv-x="610" 
d="M600 0h-168l-30 280l-164 10l-30 -290h-158l30 360l60 370l320 10l20 -40zM386 402q0 28 -30 168l-58 10h-30l-20 -178h138zM444 810l-69 -28h-48l-66 46l-88 -40l-33 72l77 50q35 20 55 20q21 0 87 -56l85 28v-92z" />
    <glyph glyph-name="Otilde" unicode="&#xd5;" horiz-adv-x="591" 
d="M549 47l-75 -47h-386l-29 132l-9 520q3 42 28 66l57 38l329 -9q45 -49 57 -86zM417 123v283q0 123 -19 246l-206 -19v-435l28 -75h197zM434 810l-69 -28h-48l-66 46l-88 -40l-33 72l77 50q35 20 55 20q21 0 87 -56l85 28v-92z" />
    <glyph glyph-name="OE" unicode="&#x152;" horiz-adv-x="810" 
d="M760 0h-672l-29 132l-9 520q3 42 28 66l57 38l321 -9q8 -9 15 -17h259l10 -60v-50h-130l-20 -150l140 -10l10 -100h-130v-240l150 -20v-100zM409 123v283q0 123 -19 246l-198 -19v-435l28 -75h189z" />
    <glyph glyph-name="oe" unicode="&#x153;" horiz-adv-x="890" 
d="M840 250l-340 -10l20 -120h290l20 -120h-370q0 -9 -99 -9q-70 0 -188.5 4.5t-112.5 4.5q-19 0 -10 40l10 480l10 20h290l420 20l50 -10zM720 350q0 80 -10 90t-64 10q-58 0 -146 -10l10 -90q98 -9 156 -9q54 0 54 9zM358 440l-198 10v-330l192 -10z" />
    <glyph glyph-name="endash" unicode="&#x2013;" horiz-adv-x="480" 
d="M430 319l-380 10v124l360 -10q9 -37 20 -124z" />
    <glyph glyph-name="emdash" unicode="&#x2014;" horiz-adv-x="798" 
d="M745 450q3 -11 3 -29q0 -42 -13 -105l-685 13v124z" />
    <glyph glyph-name="quotedblleft" unicode="&#x201c;" horiz-adv-x="420" 
d="M370 596h-68l-8 -108l-40 24l-32 88l-4 140l148 4zM194 740l-4 -152l-60 -8v-96l-40 24l-40 88l8 144h136z" />
    <glyph glyph-name="quotedblright" unicode="&#x201d;" horiz-adv-x="420" 
d="M370 596l-40 -88l-40 -24v96l-60 8l-4 152h136zM202 740l-4 -140l-32 -88l-40 -24l-8 108h-68l4 148z" />
    <glyph glyph-name="quoteleft" unicode="&#x2018;" horiz-adv-x="244" 
d="M194 484h-136l-8 144l40 88l40 24v-96l60 -8z" />
    <glyph glyph-name="quoteright" unicode="&#x2019;" horiz-adv-x="252" 
d="M202 740l-4 -140l-32 -88l-40 -24l-8 108h-68l4 148z" />
    <glyph glyph-name="divide" unicode="&#xf7;" 
d="M347 500l-124 12v164l104 -8zM540 303l-490 10v140l470 -10q9 -37 20 -140zM379 60l-136 12l-4 200l124 -12z" />
    <glyph glyph-name="lozenge" unicode="&#x25ca;" horiz-adv-x="532" 
d="M482 284l-192 -288h-40l-200 284l204 264l220 -232zM340 276l-74 94l-66 -90l70 -122z" />
    <glyph glyph-name="ydieresis" unicode="&#xff;" 
d="M540 510l-30 -840l-410 10l-10 110l310 20v190h-300l-50 520h140l20 -410h180l20 400h130z" />
    <glyph glyph-name="Ydieresis" unicode="&#x178;" horiz-adv-x="680" 
d="M610 700l-240 -300l10 -400h-170l-10 420l-10 30l-160 300q122 10 150 10q19 -37 130 -240l170 240z" />
    <glyph glyph-name="fraction" unicode="&#x2044;" horiz-adv-x="512" 
d="M512 744l-356 -728l-24 -16h-132l324 644l76 96z" />
    <glyph glyph-name="guilsinglleft" unicode="&#x2039;" horiz-adv-x="288" 
d="M238 432l-68 -112l56 -128l-100 -48l-76 180v44l116 136z" />
    <glyph glyph-name="guilsinglright" unicode="&#x203a;" horiz-adv-x="288" 
d="M238 324l-76 -180l-100 48l56 128l-68 112l72 72l116 -136v-44z" />
    <glyph glyph-name="fi" unicode="&#xfb01;" horiz-adv-x="666" 
d="M576 588l-130 -10v170h130v-160zM616 0l-170 10l-8 415l-138 -9l10 -416h-160l-20 446h-80v100l90 20l10 164l40 20h232v-100q-103 -10 -122 -10q-9 0 -9 -24q0 -26 9 -70l150 -10v-6h126z" />
    <glyph glyph-name="fl" unicode="&#xfb02;" horiz-adv-x="624" 
d="M574 0h-130q-15 0 -15 271q0 -13 4 378q-116 -9 -133 -9q-9 0 -9 -24q0 -26 9 -70l94 -10v-110l-94 -10l10 -416h-160l-20 446h-80v100l90 20l10 164l40 20h260v-9l94 9z" />
    <glyph glyph-name="daggerdbl" unicode="&#x2021;" horiz-adv-x="448" 
d="M398 544l-120 -4l3 -127l101 3l8 -108h-107l3 -112h-112l-1 112h-111v100l109 3l-1 125l-120 8l4 84q104 0 124 -4q7 30 0 112h100l-4 -112l124 4v-84z" />
    <glyph glyph-name="periodcentered" unicode="&#xb7;" horiz-adv-x="270" 
d="M220 392h-170v156l150 -10z" />
    <glyph glyph-name="periodcentered" unicode="&#x2219;" horiz-adv-x="270" 
d="M220 392h-170v156l150 -10z" />
    <glyph glyph-name="quotesinglbase" unicode="&#x201a;" horiz-adv-x="252" 
d="M202 260l-4 -140l-32 -88l-40 -24l-8 108h-68l4 148z" />
    <glyph glyph-name="quotedblbase" unicode="&#x201e;" horiz-adv-x="384" 
d="M334 221l-30 -230l-100 10v220h130zM170 218q0 -56 -2 -99q-5 -102 -18 -121h-90q-10 174 -10 220h120z" />
    <glyph glyph-name="perthousand" unicode="&#x2030;" horiz-adv-x="931" 
d="M881 210q2 -165 -8 -204q-29 -10 -223 -6l10 221zM807 74l-10 73h-63v-73h73zM250 562q0 -9 -52 -9q-55 0 -148 9v157l21 22l179 -11v-168zM187 635q0 20 -11 53h-63v-53q34 -9 54 -9t20 9zM480 740l-220 -740h-150l250 740h120zM621 210q2 -165 -8 -204q-29 -10 -223 -6
l10 221zM547 74l-10 73h-63v-73h73z" />
    <glyph glyph-name="Acircumflex" unicode="&#xc2;" horiz-adv-x="610" 
d="M600 0h-168l-30 280l-164 10l-30 -290h-158l30 360l60 370l320 10l20 -40zM386 402q0 28 -30 168l-58 10h-30l-20 -178h138zM460 859l-60 -50l-100 20l-100 -50l-90 70l170 90h50z" />
    <glyph glyph-name="Ecircumflex" unicode="&#xca;" horiz-adv-x="430" 
d="M429 0h-379v730h347l11 -60v-50h-169l-21 -150l179 -10l11 -100h-169v-240l190 -20v-100zM391 859l-60 -50l-100 20l-100 -50l-90 70l170 90h50z" />
    <glyph glyph-name="Aacute" unicode="&#xc1;" horiz-adv-x="610" 
d="M600 0h-168l-30 280l-164 10l-30 -290h-158l30 360l60 370l320 10l20 -40zM386 402q0 28 -30 168l-58 10h-30l-20 -178h138zM420 937l-70 -110l-50 -50l-80 10l80 180z" />
    <glyph glyph-name="Edieresis" unicode="&#xcb;" horiz-adv-x="430" 
d="M429 0h-379v730h347l11 -60v-50h-169l-21 -150l179 -10l11 -100h-169v-240l190 -20v-100zM412 964l-8 -188l-112 16l-8 164zM184 780l-124 12l8 144l112 20z" />
    <glyph glyph-name="Egrave" unicode="&#xc8;" horiz-adv-x="430" 
d="M429 0h-379v730h347l11 -60v-50h-169l-21 -150l179 -10l11 -100h-169v-240l190 -20v-100zM300 787l-80 -10l-50 50l-70 110l120 30z" />
    <glyph glyph-name="Iacute" unicode="&#xcd;" horiz-adv-x="280" 
d="M238 0h-178l-10 740h128l20 -70zM241 937l-70 -110l-50 -50l-80 10l80 180z" />
    <glyph glyph-name="Icircumflex" unicode="&#xce;" horiz-adv-x="280" 
d="M238 0h-178l-10 740h128l20 -70zM271 859l-60 -50l-100 20l-100 -50l-90 70l170 90h50z" />
    <glyph glyph-name="Idieresis" unicode="&#xcf;" horiz-adv-x="280" 
d="M238 0h-178l-10 740h128l20 -70zM303 964l-8 -188l-112 16l-8 164zM75 780l-124 12l8 144l112 20z" />
    <glyph glyph-name="Igrave" unicode="&#xcc;" horiz-adv-x="280" 
d="M238 0h-178l-10 740h128l20 -70zM221 787l-80 -10l-50 50l-70 110l120 30z" />
    <glyph glyph-name="Oacute" unicode="&#xd3;" horiz-adv-x="591" 
d="M549 47l-75 -47h-386l-29 132l-9 520q3 42 28 66l57 38l329 -9q45 -49 57 -86zM417 123v283q0 123 -19 246l-206 -19v-435l28 -75h197zM410 937l-70 -110l-50 -50l-80 10l80 180z" />
    <glyph glyph-name="Ocircumflex" unicode="&#xd4;" horiz-adv-x="591" 
d="M549 47l-75 -47h-386l-29 132l-9 520q3 42 28 66l57 38l329 -9q45 -49 57 -86zM417 123v283q0 123 -19 246l-206 -19v-435l28 -75h197zM460 859l-60 -50l-100 20l-100 -50l-90 70l170 90h50z" />
    <glyph glyph-name="apple" unicode="&#xf8ff;" horiz-adv-x="800" 
d="M750 740l-4 -220l-156 -8l12 -276l132 4v-240h-224l-16 184l-196 -4l-16 -180l-232 12l8 188l132 16v288l-136 4l4 244l224 4l8 -192l196 4l16 184zM670 660l-88 4q-3 -15 -3 -28q0 -30 15 -32q30 -4 56 -12zM206 596v76l-72 -12l4 -68zM494 280l-4 180l-188 -16v-160z
M658 88v64l-72 -4l4 -72zM206 76l-4 72l-64 -20l-4 -48z" />
    <glyph glyph-name="Ograve" unicode="&#xd2;" horiz-adv-x="591" 
d="M549 47l-75 -47h-386l-29 132l-9 520q3 42 28 66l57 38l329 -9q45 -49 57 -86zM417 123v283q0 123 -19 246l-206 -19v-435l28 -75h197zM340 787l-80 -10l-50 50l-70 110l120 30z" />
    <glyph glyph-name="Uacute" unicode="&#xda;" horiz-adv-x="670" 
d="M620 0h-550l-10 140l-10 610h150q0 -102 8 -314q9 -277 22 -276l220 10l10 70l10 510h140l10 -50v-700zM460 937l-70 -110l-50 -50l-80 10l80 180z" />
    <glyph glyph-name="Ucircumflex" unicode="&#xdb;" horiz-adv-x="670" 
d="M620 0h-550l-10 140l-10 610h150q0 -102 8 -314q9 -277 22 -276l220 10l10 70l10 510h140l10 -50v-700zM490 859l-60 -50l-100 20l-100 -50l-90 70l170 90h50z" />
    <glyph glyph-name="Ugrave" unicode="&#xd9;" horiz-adv-x="670" 
d="M620 0h-550l-10 140l-10 610h150q0 -102 8 -314q9 -277 22 -276l220 10l10 70l10 510h140l10 -50v-700zM420 787l-80 -10l-50 50l-70 110l120 30z" />
    <glyph glyph-name="dotlessi" unicode="&#x131;" horiz-adv-x="280" 
d="M230 0l-170 10l-10 520h140z" />
    <glyph glyph-name="circumflex" unicode="&#x2c6;" horiz-adv-x="450" 
d="M400 699l-60 -50l-100 20l-100 -50l-90 70l170 90h50z" />
    <glyph glyph-name="tilde" unicode="&#x2dc;" horiz-adv-x="404" 
d="M354 640l-69 -28h-48l-66 46l-88 -40l-33 72l77 50q35 20 55 20q21 0 87 -56l85 28v-92z" />
    <glyph glyph-name="macron" unicode="&#xaf;" horiz-adv-x="448" 
d="M398 740l-4 -100l-344 8l4 84z" />
    <glyph glyph-name="macron" unicode="&#x2c9;" horiz-adv-x="448" 
d="M398 740l-4 -100l-344 8l4 84z" />
    <glyph glyph-name="breve" unicode="&#x2d8;" horiz-adv-x="380" 
d="M330 736l-16 -84l-76 -52h-76l-88 40l-24 100h76l44 -72l64 4l8 72z" />
    <glyph glyph-name="dotaccent" unicode="&#x2d9;" horiz-adv-x="296" 
d="M246 748l-8 -160l-188 8l12 156z" />
    <glyph glyph-name="ring" unicode="&#x2da;" horiz-adv-x="296" 
d="M246 748l-8 -168l-188 8l12 164zM168 690l-40 -4v-40h36z" />
    <glyph glyph-name="cedilla" unicode="&#xb8;" horiz-adv-x="250" 
d="M200 0l-30 -120l-90 -70l-30 50l60 60v80h90z" />
    <glyph glyph-name="hungarumlaut" unicode="&#x2dd;" horiz-adv-x="412" 
d="M362 736l-12 -96l-68 -80h-100l60 84l20 96zM230 744l-12 -108l-80 -76h-88l64 84l24 96z" />
    <glyph glyph-name="ogonek" unicode="&#x2db;" horiz-adv-x="316" 
d="M266 -116l-32 -56l-88 4l-72 68l-24 100h96l8 -100l52 -16l20 28z" />
    <glyph glyph-name="caron" unicode="&#x2c7;" horiz-adv-x="450" 
d="M400 699l-130 -92h-50l-170 102l90 70l100 -66l100 36z" />
    <glyph glyph-name="Lslash" unicode="&#x141;" horiz-adv-x="444" 
d="M394 500l-138 -77v-272q0 -9 114 -19l9 -132h-263v344l-50 -28l-16 84l66 40v316h140v-224l110 72z" />
    <glyph glyph-name="lslash" unicode="&#x142;" horiz-adv-x="368" 
d="M318 488l-78 -43l18 -445h-138q-11 0 -13 146q1 -23 1 225l-42 -23l-16 84l58 35q0 137 2 273l118 10l8 -195l54 37z" />
    <glyph glyph-name="Scaron" unicode="&#x160;" horiz-adv-x="651" 
d="M593 11l-521 -11l-11 157l367 33l11 163l-389 33v55l11 298h455l11 -136l-312 -22v-96h323l33 -55zM450 869l-130 -92h-50l-170 102l90 70l100 -66l100 36z" />
    <glyph glyph-name="scaron" unicode="&#x161;" horiz-adv-x="620" 
d="M570 0h-490v120h350l10 110h-370l-20 260l20 50h460v-110h-350l10 -70l350 -10zM480 670l-130 -92h-50l-170 102l90 70l100 -66l100 36z" />
    <glyph glyph-name="Zcaron" unicode="&#x17d;" horiz-adv-x="680" 
d="M630 0h-540l20 170l320 420h-380v150h500l20 -20l30 -140l-290 -410l310 -10zM470 869l-130 -92h-50l-170 102l90 70l100 -66l100 36z" />
    <glyph glyph-name="zcaron" unicode="&#x17e;" horiz-adv-x="550" 
d="M500 0h-450l10 160l290 260h-300v120h440q4 0 4 -33q0 -25 -2 -60.5t-2 -26.5t-20 -30l-280 -270h300zM450 670l-130 -92h-50l-170 102l90 70l100 -66l100 36z" />
    <glyph glyph-name="brokenbar" unicode="&#xa6;" horiz-adv-x="280" 
d="M200 401q-140 -9 -140 0q0 10 -10 310l120 20zM230 -9q-14 -6 -40 -6q-45 0 -110 16l-10 320h130q10 -150 30 -330z" />
    <glyph glyph-name="Eth" unicode="&#xd0;" horiz-adv-x="586" 
d="M536 100l-50 -80q-71 -20 -90 -20h-300v333l-46 -1l4 108l42 -4v304l290 10l110 -80zM396 230l-20 350l-140 20l7 -170l119 -2l4 -92l-118 -1l8 -165l120 10z" />
    <glyph glyph-name="eth" unicode="&#xf0;" horiz-adv-x="476" 
d="M426 0h-284l-92 112v200l20 32l172 36v72l-15 6l-81 -62l-16 -4l-44 48l64 50l-72 30l32 100l133 -56l107 84l44 -60l-75 -58l91 -314zM298 104l-12 168l-100 4l-24 -124l12 -48h124z" />
    <glyph glyph-name="Yacute" unicode="&#xdd;" horiz-adv-x="680" 
d="M610 700l-240 -300l10 -400h-170l-10 420l-10 30l-160 300q122 10 150 10q19 -37 130 -240l170 240zM480 937l-70 -110l-50 -50l-80 10l80 180z" />
    <glyph glyph-name="Thorn" unicode="&#xde;" horiz-adv-x="568" 
d="M518 188l-28 -12l-260 -16v-160h-156l-24 564v180h128l4 -180l324 4zM418 280l-8 180h-192l8 -184z" />
    <glyph glyph-name="thorn" unicode="&#xfe;" horiz-adv-x="528" 
d="M478 0l-284 -4l4 -196h-140l-8 740h116v-176l264 8l32 -8zM374 108l-12 164l-160 -8l4 -164z" />
    <glyph glyph-name="minus" unicode="&#xad;" 
d="M540 303l-490 10v140l470 -10q9 -37 20 -140z" />
    <glyph glyph-name="minus" unicode="&#x2212;" 
d="M540 303l-490 10v140l470 -10q9 -37 20 -140z" />
    <glyph glyph-name="onesuperior" unicode="&#xb9;" horiz-adv-x="224" 
d="M174 543l-68 8l-4 128h-52l8 52q25 16 36.5 16t31.5 20h48v-224z" />
    <glyph glyph-name="twosuperior" unicode="&#xb2;" horiz-adv-x="293" 
d="M242 588l-4 -52l-184 12v44l100 80l-12 36h-92l8 52q42 0 112 8q8 2 15 2q9 0 24 -5t24.5 -5t9.5 -19q0 -28 -17 -85l-76 -64z" />
    <glyph glyph-name="threesuperior" unicode="&#xb3;" horiz-adv-x="277" 
d="M226 720q4 0 -16 -188q-75 7 -116 7q-25 0 -32 -3q-8 -3 -8 7q0 14 12 45l76 -4l8 40l-80 4l4 44l64 8l-8 28l-80 -4l4 56h104l48 -20q16 -20 20 -20z" />
    <glyph glyph-name="onehalf" unicode="&#xbd;" horiz-adv-x="524" 
d="M473 368l-4 -52l-184 12v44l100 80l-12 36h-92l8 52q42 0 112 8q8 2 15 2q9 0 24 -5t24.5 -5t9.5 -19q0 -28 -17 -85l-76 -64zM373 684l-164 -240l-68 -64l-44 36l232 288zM174 543l-68 8l-4 128h-52l8 52q25 16 36.5 16t31.5 20h48v-224z" />
    <glyph glyph-name="onequarter" unicode="&#xbc;" horiz-adv-x="559" 
d="M509 392h-52l4 -76l-52 -4l4 76l-104 16v152l56 -4l-4 -100h40l4 88h56v-104l44 4zM373 684l-164 -240l-68 -64l-44 36l232 288zM174 543l-68 8l-4 128h-52l8 52q25 16 36.5 16t31.5 20h48v-224z" />
    <glyph glyph-name="threequarters" unicode="&#xbe;" horiz-adv-x="600" 
d="M550 392h-52l4 -76l-52 -4l4 76l-104 16v152l56 -4l-4 -100h40l4 88h56v-104l44 4zM414 684l-164 -240l-68 -64l-44 36l232 288zM226 720q4 0 -16 -188q-75 7 -116 7q-25 0 -32 -3q-8 -3 -8 7q0 14 12 45l76 -4l8 40l-80 4l4 44l64 8l-8 28l-80 -4l4 56h104l48 -20
q16 -20 20 -20z" />
    <glyph glyph-name="DEL" horiz-adv-x="50" 
 />
    <glyph glyph-name="Euro" unicode="&#x20ac;" horiz-adv-x="680" 
d="M630 220l-12 -204l-80 -16l-340 8l-40 44l-12 200h-88l-8 92h92l-4 68h-88v84l80 -4v200l24 48l460 -4l-4 -176l-92 -8l-24 92l-228 -12l-8 -128h196v-100l-180 -8v-48l176 12l4 -104l-180 -8l4 -136l216 -12l20 120h116z" />
    </font>
</defs>
</svg>
